呆呆狐貍
隱世仙人♂

[2014] [歐美] [打包] [動畫] [BT下載][索尼克音爆/Sonic Boom 第一季][全52集打包][英語中字][MKV][1080P][片源]

-->

注:Netflix版片源 內含官方中字  更多字幕詳見下面參數列表


◎譯  名 索尼克音爆

◎片  名 Sonic Boom

◎年  代 2014

◎產  地 法國/中國大陸

◎類  別 動畫

◎語  言 英語/漢語普通話

◎上映日期 2014-07-28

◎IMDb評分  6.6/10 from 1,348 users

◎IMDb鏈接  http://www.imdb.com/title/tt3232262/

◎BT之家整理 http://www.btbtt.me/

◎集  數 52

◎片  長 12


◎簡  介


  索尼克是著名的游戲和漫畫造型,也是一款極受歡迎的電子游戲系列,作為世界上最具知名度的刺猬,索尼克從一誕生就憑借其可愛的造型和無可比擬的速度風靡全球。全新52集CG動畫《索尼克音爆》正在美國Cartoon Network頻道熱映,大陸版《索尼克音爆》目前已經由四川鼎岳文化引進,由聲娛團隊負責后期配音。已經于6日開始在成都錄制樣片,2015年1月6日起正式進棚錄制!


Video
ID : 1
Format : AVC
Format/Info : Advanced Video Codec
Format profile : [email protected]
Format settings : CABAC / 3 Ref Frames
Format settings, CABAC : Yes
Format settings, ReFrames : 3 frames
Codec ID : V_MPEG4/ISO/AVC
Duration : 11 min 10 s
Bit rate mode : Variable
Bit rate : 7 500 kb/s
Maximum bit rate : 11.2 Mb/s
Width : 1 920 pixels
Height : 1 080 pixels
Display aspect ratio : 16:9
Frame rate mode : Constant
Frame rate : 25.000 FPS
Color space : YUV
Chroma subsampling : 4:2:0
Bit depth : 8 bits
Scan type : Progressive
Bits/(Pixel*Frame) : 0.145
Stream size : 597 MiB (95%)
Writing library : x264 core 118
Encoding settings : cabac=1 / ref=3 / deblock=1:0:0 / analyse=0x1:0x111 / me=umh / subme=10 / psy=1 / psy_rd=1.00:0.00 / mixed_ref=1 / me_range=24 / chroma_me=1 / trellis=2 / 8x8dct=0 / cqm=0 / deadzone=21,11 / fast_pskip=1 / chroma_qp_offset=-2 / threads=6 / sliced_threads=0 / nr=0 / decimate=1 / interlaced=0 / bluray_compat=0 / constrained_intra=0 / bframes=2 / b_pyramid=0 / b_adapt=2 / b_bias=0 / direct=3 / weightb=1 / open_gop=0 / weightp=2 / keyint=50 / keyint_min=26 / scenecut=0 / intra_refresh=0 / rc_lookahead=0 / rc=2pass / mbtree=1 / bitrate=7500 / ratetol=1.0 / qcomp=0.50 / qpmin=6 / qpmax=51 / qpstep=4 / cplxblur=20.0 / qblur=0.5 / vbv_maxrate=11250 / vbv_bufsize=15000 / nal_hrd=vbr / ip_ratio=1.40 / aq=1:1.00
Default : Yes
Forced : No

Audio
ID : 2
Format : AC-3
Format/Info : Audio Coding 3
Codec ID : A_AC3
Duration : 11 min 10 s
Bit rate mode : Constant
Bit rate : 384 kb/s
Channel(s) : 6 channels
Channel positions : Front: L C R, Side: L R, LFE
Sampling rate : 48.0 kHz
Frame rate : 31.250 FPS (1536 SPF)
Bit depth : 16 bits
Compression mode : Lossy
Stream size : 30.7 MiB (5%)
Language : English
Service kind : Complete Main
Default : Yes
Forced : No

Text #1
ID : 3
Format : UTF-8
Codec ID : S_TEXT/UTF8
Codec ID/Info : UTF-8 Plain Text
Duration : 10 min 51 s
Bit rate : 60 b/s
Count of elements : 158
Stream size : 4.81 KiB (0%)
Title : SDH
Language : English
Default : No
Forced : No

Text #2
ID : 4
Format : UTF-8
Codec ID : S_TEXT/UTF8
Codec ID/Info : UTF-8 Plain Text
Duration : 10 min 44 s
Bit rate : 110 b/s
Count of elements : 107
Stream size : 8.73 KiB (0%)
Language : Arabic
Default : No
Forced : No

Text #3
ID : 5
Format : UTF-8
Codec ID : S_TEXT/UTF8
Codec ID/Info : UTF-8 Plain Text
Duration : 10 min 44 s
Bit rate : 66 b/s
Count of elements : 113
Stream size : 5.24 KiB (0%)
Language : German
Default : No
Forced : No

Text #4
ID : 6
Format : UTF-8
Codec ID : S_TEXT/UTF8
Codec ID/Info : UTF-8 Plain Text
Duration : 10 min 44 s
Bit rate : 62 b/s
Count of elements : 106
Stream size : 4.90 KiB (0%)
Language : Spanish
Default : No
Forced : No

Text #5
ID : 7
Format : UTF-8
Codec ID : S_TEXT/UTF8
Codec ID/Info : UTF-8 Plain Text
Duration : 10 min 44 s
Bit rate : 61 b/s
Count of elements : 109
Stream size : 4.85 KiB (0%)
Language : Spanish
Default : No
Forced : No

Text #6
ID : 8
Format : UTF-8
Codec ID : S_TEXT/UTF8
Codec ID/Info : UTF-8 Plain Text
Duration : 10 min 44 s
Bit rate : 65 b/s
Count of elements : 106
Stream size : 5.14 KiB (0%)
Language : French
Default : No
Forced : No

Text #7
ID : 9
Format : UTF-8
Codec ID : S_TEXT/UTF8
Codec ID/Info : UTF-8 Plain Text
Duration : 10 min 41 s
Bit rate : 101 b/s
Count of elements : 114
Stream size : 7.91 KiB (0%)
Language : Hebrew
Default : No
Forced : No

Text #8
ID : 10
Format : UTF-8
Codec ID : S_TEXT/UTF8
Codec ID/Info : UTF-8 Plain Text
Duration : 10 min 44 s
Bit rate : 64 b/s
Count of elements : 106
Stream size : 5.11 KiB (0%)
Language : Italian
Default : No
Forced : No

Text #9
ID : 11
Format : UTF-8
Codec ID : S_TEXT/UTF8
Codec ID/Info : UTF-8 Plain Text
Duration : 10 min 42 s
Bit rate : 50 b/s
Count of elements : 127
Stream size : 3.98 KiB (0%)
Language : Japanese
Default : No
Forced : No

Text #10
ID : 12
Format : UTF-8
Codec ID : S_TEXT/UTF8
Codec ID/Info : UTF-8 Plain Text
Duration : 10 min 44 s
Bit rate : 45 b/s
Count of elements : 107
Stream size : 3.62 KiB (0%)
Language : Korean
Default : No
Forced : No

Text #11
ID : 13
Format : UTF-8
Codec ID : S_TEXT/UTF8
Codec ID/Info : UTF-8 Plain Text
Duration : 10 min 44 s
Bit rate : 61 b/s
Count of elements : 104
Stream size : 4.87 KiB (0%)
Language : Dutch
Default : No
Forced : No

Text #12
ID : 14
Format : UTF-8
Codec ID : S_TEXT/UTF8
Codec ID/Info : UTF-8 Plain Text
Duration : 10 min 44 s
Bit rate : 59 b/s
Count of elements : 107
Stream size : 4.65 KiB (0%)
Language : Polish
Default : No
Forced : No

Text #13
ID : 15
Format : UTF-8
Codec ID : S_TEXT/UTF8
Codec ID/Info : UTF-8 Plain Text
Duration : 10 min 44 s
Bit rate : 57 b/s
Count of elements : 108
Stream size : 4.50 KiB (0%)
Language : Portuguese
Default : No
Forced : No

Text #14
ID : 16
Format : UTF-8
Codec ID : S_TEXT/UTF8
Codec ID/Info : UTF-8 Plain Text
Duration : 10 min 44 s
Bit rate : 59 b/s
Count of elements : 104
Stream size : 4.70 KiB (0%)
Title : Brazilian
Language : Portuguese
Default : No
Forced : No

Text #15
ID : 17
Format : UTF-8
Codec ID : S_TEXT/UTF8
Codec ID/Info : UTF-8 Plain Text
Duration : 10 min 27 s
Bit rate : 59 b/s
Count of elements : 102
Stream size : 4.55 KiB (0%)
Language : Romanian
Default : No
Forced : No

Text #16
ID : 18
Format : UTF-8
Codec ID : S_TEXT/UTF8
Codec ID/Info : UTF-8 Plain Text
Duration : 10 min 30 s
Bit rate : 154 b/s
Count of elements : 149
Stream size : 11.9 KiB (0%)
Language : Thai
Default : No
Forced : No

Text #17
ID : 19
Format : UTF-8
Codec ID : S_TEXT/UTF8
Codec ID/Info : UTF-8 Plain Text
Duration : 10 min 44 s
Bit rate : 65 b/s
Count of elements : 107
Stream size : 5.17 KiB (0%)
Language : Turkish
Default : No
Forced : No

Text #18
ID : 20
Format : UTF-8
Codec ID : S_TEXT/UTF8
Codec ID/Info : UTF-8 Plain Text
Duration : 10 min 44 s
Bit rate : 54 b/s
Count of elements : 107
Stream size : 4.31 KiB (0%)
Title : Simplified
Language : Chinese
Default : No
Forced : No

Text #19
ID : 21
Format : UTF-8
Codec ID : S_TEXT/UTF8
Codec ID/Info : UTF-8 Plain Text
Duration : 10 min 44 s
Bit rate : 54 b/s
Count of elements : 107
Stream size : 4.27 KiB (0%)
Title : Traditional
Language : Chinese
Default : No
Forced : No



1 個附件 售價 大小 下載 時間

Sonic.Boom.S01.1080p.NF.WEBRip.DD5.1.x264-QOQ[btbtt.me].torrent 0 金幣 56.75K 2297 次 2017-9-6

#1樓
發帖時間:2017-09-06 21:26:17   |   回復數:5
s3364500
一代宗師
感謝分享~~~~
2017-9-6 #2樓
hbf0713
小有名氣
感謝lz分享,字幕好找嗎?
2017-9-6 #3樓
ulix
武林高手
Thank you so much for sharing
2017-9-7 #4樓
911degrees
隱世仙人♂
非常感謝,謝謝分享
2017-9-7 #5樓
igyw3
武林高手
感謝分享~~~~
感謝分享~~~~
感謝分享~~~~
感謝分享~~~~
2017-9-14 #6樓
游客組