呆呆狐貍
隱世仙人♂

[2014] [歐美] [打包] [動畫] [BT下載][索尼克音爆/Sonic Boom 第二季][全52集打包][英語英字][MKV][1080P][片源]

-->


◎譯  名 索尼克音爆 第二季

◎片  名 Sonic Boom S02

◎年  代 2014

◎產  地 法國/中國大陸

◎類  別 動畫

◎語  言 英語/漢語普通話

◎上映日期 2014-07-28

◎IMDb評分  6.6/10 from 1,348 users

◎IMDb鏈接  http://www.imdb.com/title/tt3232262/

◎BT之家整理 http://www.btbtt.me/

◎集  數 52

◎片  長 12


◎簡  介


  索尼克是著名的游戲和漫畫造型,也是一款極受歡迎的電子游戲系列,作為世界上最具知名度的刺猬,索尼克從一誕生就憑借其可愛的造型和無可比擬的速度風靡全球。全新52集CG動畫《索尼克音爆》正在美國Cartoon Network頻道熱映,大陸版《索尼克音爆》目前已經由四川鼎岳文化引進,由聲娛團隊負責后期配音。已經于6日開始在成都錄制樣片,2015年1月6日起正式進棚錄制!


Video
ID : 1
Format : AVC
Format/Info : Advanced Video Codec
Format profile : [email protected]
Format settings : CABAC / 4 Ref Frames
Format settings, CABAC : Yes
Format settings, ReFrames : 4 frames
Codec ID : V_MPEG4/ISO/AVC
Duration : 11 min 40 s
Bit rate : 5 310 kb/s
Width : 1 920 pixels
Height : 1 080 pixels
Display aspect ratio : 16:9
Frame rate mode : Constant
Frame rate : 23.976 (24000/1001) FPS
Color space : YUV
Chroma subsampling : 4:2:0
Bit depth : 8 bits
Scan type : Progressive
Bits/(Pixel*Frame) : 0.107
Stream size : 444 MiB (99%)
Default : Yes
Forced : No

Audio
ID : 2
Format : AAC
Format/Info : Advanced Audio Codec
Format profile : HE-AAC / LC
Format settings : Explicit
Codec ID : A_AAC-2
Duration : 11 min 40 s
Bit rate : 64.0 kb/s
Channel(s) : 2 channels
Channel positions : Front: L R
Sampling rate : 48.0 kHz / 24.0 kHz
Frame rate : 23.438 FPS (1024 SPF)
Compression mode : Lossy
Stream size : 5.35 MiB (1%)
Default : Yes
Forced : No

Text
ID : 3
Format : UTF-8
Codec ID : S_TEXT/UTF8
Codec ID/Info : UTF-8 Plain Text
Duration : 11 min 20 s
Bit rate : 72 b/s
Count of elements : 244
Stream size : 6.07 KiB (0%)
Language : English
Default : No
Forced : No



1 個附件 售價 大小 下載 時間

Sonic.Boom.S02.1080p.HULU.WEBRip.AAC2.0.x264-QOQ[btbtt.me].torrent 0 金幣 57.84K 763 次 2018-10-5

#1樓
發帖時間:2018-10-05 22:50:25   |   回復數:1
mzb520
武林高手
支持下。
2018-10-6 #2樓
游客組